2024 My life with the thrill kill kult - Mar 27, 2023 ... Find and buy MY LIFE WITH THE THRILL KILL KULT - Evil Eye Tour 87-97 tickets at the The Echo Lounge & Music Hall in Dallas, TX for Mar 27, ...

 
My Life With The Thrill Kill Kult performing Sex On Wheels at Unity Fest in Madeira Beach, FL on 8/15/15.. My life with the thrill kill kult

My Life with the Thrill Kill Kult Tickets Rock My Life with the Thrill Kill Kult Tickets 4.9 Events About Reviews Fans Also Viewed Events 7 results All Dates United States …Records stable of recording artists, My Life With The Thrill Kill Kult, or TKK for short, have been conjuring up sonic tales of sex, blasphemy and kitschy horror since 1987.About My Life With the Thrill Kill Kult. Hailing from Chicago’s renowned Wax Trax! Records stable of artists, MY LIFE WITH THE THRILL KILL KULT have been conjuring up sonic tales of sex, blasphemy and kitschy horror since 1987. Founding members Groovie Mann and Buzz McCoy were pioneers in the industrial music genre, yet have continued …Buzz McCoy of “My Life With The Thrill Kill Kult” (Photo – Jeremy Hinks) Ok, your influences, I know you got “Einstürzende Neubauten”, love them, they are tight with WIRE, one of my faves. Groovie Mann: I LOVE WIRE, Colin Newman his album A-Z, that inspired me a lot, as PIL did in the early ‘80s.From the 1990 album "Confessions of a Knife"The character Brutus in the play “The Life and Death of Julius Caesar” is an honorable man because he kills Caesar with the belief that he is acting for the greater good. Brutus al...My Life With The Thrill Kill Kult, an alternative group from Los Angeles. Lyrics. My Life With The Thrill Kill Kult, an alternative group from Los Angeles. News. Tour. Past Shows. Shop. ... A Girl Doesn't Get Killed By A Make-Believe Lover Cuz It's Hot 43.1 KB. A Martini Built For 2 38.4 KB. And This Is What The Devil Does 39.2 KB. After The ...My Life With The Thrill Kill Kult are a band hailing from Chicago, Illinois who formed in 1987. Since debuting, they have released 13 studio albums and made a reputation for themselves as one of the most notorious and …. My Life with the Thrill Kill Kult or TKK, as they are known to fans, has a sound that is truly unique.A Daisy Chain 4 Satan Lyrics. My friends turn me on. I live for drugs. I get drugs free, I live for drugs... I get drugs free, my friends turn me on. I can’t afford it, I would never buy drugs ...Find and buy My Life With The Thrill Kill Kult tickets at AXS.com. Find upcoming event tour dates and schedules for My Life With The Thrill Kill Kult at ...I am on my last limb I'm on my last limb. Stuck in the mainstream pseudo dude. You are on your last limb you're on your last limb. The day I die will mean nothing to you. The days of swine and roses. Your mind's diseased with perverted justice. I am on my last limb I'm on my last limb. Nameless horror we call love.My Life With The Thrill Kill Kult. Released. 1993 — US. CD — Album. The Mind Is A Terrible Thing To Taste. Ministry. Released. 1989 — US. CD — Album. Twitch. Ministry. Released. 1990 — US. CD — Album. Naïve / Hell To Go. KMFDM. CD — Album, Repress. A Crime For All Seasons. My Life With The Thrill Kill Kult. Released. 1997 — US.14802 N. Nebraska Avenue. Tampa, FL 33605. ticketmaster.evyy.net. Event details are subject to change. Before attending, please check with the organization to …Learn about the history and evolution of the industrial music group from Chicago, who created a sonic tale of sex, blasphemy and kitschy horror since 1987. The band has released 14 studio albums, scored film soundtracks and scores, and continue to perform live with their own label and image. Records stable of recording artists, My Life With The Thrill Kill Kult, or TKK for short, have been conjuring up sonic tales of sex, blasphemy and kitschy horror since 1987.CarX Drift Racing Online has gained immense popularity among racing enthusiasts and gamers alike. With its realistic physics and immersive gameplay, it provides a thrilling experie...A music video made from old educational films set to MLWTKK's song A Daisy Chain 4 Satan.There are a lot of people who practice. Independent satanic rituals. There are just some, uh, eccentric housewives trying to imagine. The devil under every bed. The potential does exist that some will, get. Involved with a dangerous cult group. Thrill Kill Kult. America's most dangerous cult. She is equipped with revenge.Nardiello and Daley rechristened themselves Groovie Mann and Buzz McCoy, and enlisted keyboardist Thomas “Buck Ryder” Lockyear, “go-go butt” dancer Jacky Blacque and an ever-changing array of local nightcrawlers, dubbed the Bomb Gang Girlz, to create My Life With the Thrill Kill Kult. Less a band than a lurid low-brow art project ...The duo's initial project was to make a movie (in the style of Russ Meyer and John Waters) to be named "My Life with the Thrill Kill Kult." The movie never got off the ground, but McCoy and Mann used the aborted movie's title for the name of their just-formed group, as their over-the-top stage show was best described as "sensory overload".Discover My Life Remixed: A Remix Tribute to My Life with the Thrill Kill Kult by My Life with the Thrill Kill Kult released in 2005. Find album reviews, track lists, credits, awards and more at AllMusic.MY LIFE WITH THE THRILL KILL KULT - Evil Eye Tour 87-97. Find concert tickets for My Life with the Thrill Kill Kult upcoming 2024 shows. Explore My Life with the Thrill Kill …14802 N. Nebraska Avenue. Tampa, FL 33605. ticketmaster.evyy.net. Event details are subject to change. Before attending, please check with the organization to …Learn about the history and evolution of the industrial music group from Chicago, who created a sonic tale of sex, blasphemy and kitschy horror since 1987. The band has released 14 studio albums, scored film soundtracks and scores, and continue to perform live with their own label and image. My Life With The Thrill Kill Kult, an alternative group from Los Angeles. Lyrics. My Life With The Thrill Kill Kult, an alternative group from Los Angeles. News. Tour. Past Shows. Shop. ... A Girl Doesn't Get Killed By A Make-Believe Lover Cuz It's Hot 43.1 KB. A Martini Built For 2 38.4 KB. And This Is What The Devil Does 39.2 KB. After The ...Although we’re all still lamenting the days when our favorite industrial disco sleazeballs (and other subversive outsiders in general) could headline a city’s premiere clubs throughout the ‘90s, Philthy has enjoyed getting to see Wax Trax! alums My Life With The Thrill Kill Kult play some of the city’s quirkier venues throughout the past decade …My Life With The Thrill Kill Kult, an alternative group from Los Angeles. Lyrics. My Life With The Thrill Kill Kult, an alternative group from Los Angeles. News. Tour. Past Shows. Shop. ... A Girl Doesn't Get Killed By A Make-Believe Lover Cuz It's Hot 43.1 KB. A Martini Built For 2 38.4 KB. And This Is What The Devil Does 39.2 KB. After The ...Little snack in the sack, baby don't come back. Midnight, moonlight, goodnight. Little snake in the grass, trading kisses for cash. She's a fat cat, full of smack. And a slave to the sweat. She's ...I was listening to this song and felt inspired to make a music video type thing, and so I did! I figured this would serve as a nice portfolio piece. MY CREAT...Jun 26, 2016 ... Biography · Years Active. 1987 – present (37 years) · Founded In. Chicago, Cook County, Illinois, United States · Members. Adam Aaronson; Buzz...Diamonds & Daggerz. My Life With The Thrill Kill Kult. Released. 2004 — US. CD —. Album. darlingkandie May 7, 2014. A dense, clubby release from Thrill Kill Kult, similar in production to 1993's "13 Above the Night" but with a more contemporary sound. Standout tracks are wicked disco track 'Monti Karlo' and 'Bella Piranha', both sure to be ...Out 4 The Kill Lyrics. Ravish my body, 'til I lose my obsession... Torture me slowly, 'til I lose my obsession... Punish me gently, 'til I lose my obsession... Out 4 the Kill. The wrath of Satan ...LP. $36.99. Expanded. Black. Limited to 775 copies. Released 04/20/2024 Catalog Number. TUCI327673.1. Discover Kooler Than Jesus - RSD 2024 by My Life With The Thrill Kill …While water pollution has many impacts on the environment, its effects are most readily visible in the lakes and streams where pollution kills fish and other aquatic life. Accordin...My Life With The Thrill Kill Kult; I See Good Spirits & I See Bad Spirits; Gateway To Hell Lyrics. More Featured Meanings. Fast Car Tracy Chapman "Fast car" is kind of a continuation of Bruce Springsteen's "Born to Run." It has all the clawing your way to a better life, but in this case the protagonist never makes it with her love; in fact she ...After the Flesh. My Life WIth The Thrill Kill Kult. A Daisy Chain 4 Satan (Acid and Flowers Mix) My Life WIth The Thrill Kill Kult. My Life WIth The Thrill Kill Kult. Kooler Than Jesus. My Life ... Assume the motion. Breath the holy pain is resurrects. Bathe me in leather. Bathe me in leather. Drown me in your sex. We tread where angels fear to go. Where childish crimes are yours and mine ...My Life With The Thrill Kill Kult are a band hailing from Chicago, Illinois who formed in 1987. Since debuting, they have released 13 studio albums and made a reputation for themselves as one of the most notorious and …. My Life with the Thrill Kill Kult or TKK, as they are known to fans, has a sound that is truly unique.Jul 18, 2022 · My Life With The Thrill Kill Kult - Hit & Run Holiday (1995)01 Hit And Run Holiday 00:0002 Glamour Is A Rocky Road 3:0303 Portrait Of The Damned... Mar 8, 2023 · The shows will focus heavily on My Life With the Thrill Kill Kult’s Wax Trax and Interscope years (1987-1997), highlighting the group’s transition from industrial rock to electronic dance music. Jun 26, 2016 ... Biography · Years Active. 1987 – present (37 years) · Founded In. Chicago, Cook County, Illinois, United States · Members. Adam Aaronson; Buzz...Filename F:\Archive\music\My Life with the Thrill Kill Kult - Cherrie Blue - 2006 - 4 CD Box Set\My Life With The Thrill Kill Kult - 2001 - The Reincarnation Of Luna\05 - Girl Without a Planet.wav Peak level 97.7 % Track quality 100.0 % Test CRC 8761AD01 Copy CRC 8761AD01My Life with the Thrill Kill Kult. Released: September 7, 1993 () Recorded: Ground Control Studios (Los Angeles, California) Genre: Industrial dance: Label: Interscope: Producer: Buzz McCoy: My Life with the Thrill Kill Kult chronology; Sexplosion! (1991) 13 Above the Night (1993) Hit & Run Holiday (1995)Oct 23, 2023 · Hailing from Chicago’s renowned Wax Trax! Records stable of recording artists, MY LIFE WITH THE THRILL KILL KULT has been conjuring up sonic tales of sex, blasphemy, and kitschy horror since 1987. Along with label mates such as Front 242 and Ministry, TKK (as often abbreviated), helped develop the industrial music genre, yet have consistently ... American Truck Simulator has gained immense popularity among gaming enthusiasts and trucking enthusiasts alike. The game allows players to experience the thrill and challenges of b...My Life With The Thrill Kill Kult. Released. 2016 — US. CDr — Album, Compilation. Hit & Run Holiday. My Life With The Thrill Kill Kult. Released. 1995 — US. CD — Album. Reviews. Add Review. disturbancewsvc Feb 27, 2020. Report; Edited 3 years ago. Absolutely AMAZING.Oct 23, 2023 · Hailing from Chicago’s renowned Wax Trax! Records stable of recording artists, MY LIFE WITH THE THRILL KILL KULT has been conjuring up sonic tales of sex, blasphemy, and kitschy horror since 1987. Along with label mates such as Front 242 and Ministry, TKK (as often abbreviated), helped develop the industrial music genre, yet have consistently ... 14802 N. Nebraska Avenue. Tampa, FL 33605. ticketmaster.evyy.net. Event details are subject to change. Before attending, please check with the organization to …A lot of those songs were originally released on Wax Trax Records on a series of singles: My Life With The Thrill Kill Kult in 1987, Some Have To Dance, Some Have To Kill in 1988 and Kooler Than Jesus in 1989. Luckily, Rykodisc compiled all those singles and more into one handy self-titled compilation album in 2004.Dope Kult Lyrics: Oh Daddy oh... / Why am I doing this, why do I have to do it, and why can't I just be an ordinary person? / No Daddy don't! / And this is what the devil does... / Oh how I hateApr 17, 2023 · Chicago-based My Life With The Thrill Kill Kult is set to release their album “Sinister Whisperz IV: The Bedroom Tapes (1987-1988)” on May 9, 2023. The fourth installment in the artist's retrospective series focuses on the pre-band days when the duo was just beginning to collaborate. The collection consists of rare live recordings made in. Artist: My Life With the Thrill Kill Kult , Tour: Evil Eye Tour 2023 , Venue: The Asylum at Masonic Temple , Cleveland, OH, USA. Set Times: Doors: 6:30 PM Show: 9:50 PM – 11:20 PM. Burning Dirt. A Daisy Chain 4 Satan.My Life With the Thrill Kill Kult: albums, songs, playlists | Listen on Deezer. Sign up for Deezer for free and listen to My Life With the Thrill Kill Kult: discography, top tracks and playlists.Sexplosion! (1991) 13 Above the Night. (1993) Sexplosion! is the third studio album by industrial disco band My Life with the Thrill Kill Kult. It was originally released in 1991 on Wax Trax! Records. Described by lead vocalist Groovie Mann as their "sexy" album, Sexplosion! is one of the band's biggest commercial and critical successes.Listen to My Life With the Thrill Kill Kult on Spotify. My Life With The Thrill Kill Kult · Album · 2018 · 13 songs.My Life With the Thrill Kill Kult 2023 Tour Dates with ADULT. and KANGA: 05/14 – Mesa, AZ @ Nile Theatre 05/15 – Albuquerque, NM @ Launchpad 05/17 – Houston, TX @ House of BluesSexplosion! (1991) 13 Above the Night. (1993) Sexplosion! is the third studio album by industrial disco band My Life with the Thrill Kill Kult. It was originally released in 1991 on Wax Trax! Records. Described by lead vocalist Groovie Mann as their "sexy" album, Sexplosion! is one of the band's biggest commercial and critical successes.Records stable of recording artists, My Life With The Thrill Kill Kult, or TKK for short, have been conjuring up sonic tales of sex, blasphemy and kitschy horror since 1987. Along with label mates including Front 242, Ministry and KMFDM , TKK helped develop the industrial music genre, but they continued to evolve, creating one of the most diverse repertoires in …For high-achievers, striving to be the best is part of the job description. Pushing your limits can be exhilarating, accomplishing things you’ve set your sights on can be motivatin...The Thrill Kill Kult saga began in Chicago 1987 when recently transplanted Boston musician Buzz McCoy and poet/artist/singer Groovie Mann discovered that they shared a similarly oblique view of the world inspired by tabloid headlines, B-movie ethos, sexually ambiguous decadence and sheer boredom. With a revolving cast of eccentric characters ... Jun 26, 2016 ... Biography · Years Active. 1987 – present (37 years) · Founded In. Chicago, Cook County, Illinois, United States · Members. Adam Aaronson; Buzz...#MyLifewiththeThrillKillKult #Hit&RunHolidayArtista: My Life with the Thrill Kill KultÁlbum: Hit & Run HolidayFecha de lanzamiento: 1995It includes the edited versions of "'Cuz It's Hot" and "Kooler Than Jesus" from My Life With the Thrill Kill Kult, the Sexplosion! highlight "Sex on Wheels," the delightfully sleazy "Devil Bunnies," and a remix of the Crow soundtrack cut "After the Flesh." All of this makes Best of TKK a worthy purchase for anyone curious about the band's ...Feb 22, 2021 · Release Date: 2021-02-22. Entering its thirty-sixth year of making disco-tinged dark dance music, it can definitively be stated that there is no other band quite like My Life with the Thrill Kill Kult, having stitched a permanent presence in the fabric of the industrial scene and continuing the unique blend of sleaze, Satan, and sex. Oct 23, 2023 ... Hailing from Chicago's renowned Wax Trax! Records stable of recording artists, MY LIFE WITH THE THRILL KILL KULT has been conjuring up sonic ...Apr 17, 2023 · Chicago-based My Life With The Thrill Kill Kult is set to release their album “Sinister Whisperz IV: The Bedroom Tapes (1987-1988)” on May 9, 2023. The fourth installment in the artist's retrospective series focuses on the pre-band days when the duo was just beginning to collaborate. The collection consists of rare live recordings made in. If you like the thrill of the hunt to find used items with plenty of life left in them, Goodwill Industries might be your kind of store. With many Goodwill stores located throughou...How to Format Lyrics: Type out all lyrics, even repeating song parts like the chorus; Lyrics should be broken down into individual lines; Use section headers above different song parts like [Verse ...2,538 copies Releases Showing 0 - 0 of 0 Explore music from My Life With The Thrill Kill Kult. Shop for vinyl, CDs, and more from My Life With The Thrill Kill Kult on Discogs.MY LIFE WITH THE THRILL KILL KULT - Evil Eye Tour 87-97. Find concert tickets for My Life with the Thrill Kill Kult upcoming 2024 shows. Explore My Life with the Thrill Kill Kult tour schedules, latest setlist, videos, and more on livenation.com. In “To Kill a Mockingbird,” Arthur “Boo” Radley stays inside because of the emotional and psychological damage that his father has wreaked up on him since childhood. Scout and Jem ...A Martini Built for 2 Lyrics. Here at the sign of the peacock. We find the club C'est Sable. It is a club dedicated to sad-ism. I sit here all alone with a martini built for 2. I sit here all ...It is ironic that the preceding My Life with the Thrill Kill Kult disc was the remix compilation Dirty Little Secrets, because The Reincarnation of Luna sounds like a slew of remixes in its own right. This owes in part to the presence of some soundscapes that are unique to the group, though the results are mixed.MY LIFE WITH THE THRILL KILL KULT - Evil Eye Tour 87-97. Find concert tickets for My Life with the Thrill Kill Kult upcoming 2024 shows. Explore My Life with the Thrill Kill …U Got the Look My Life With The Thrill Kill Kult Ramrod Mix. Dirty Sanchez. Machine Above. Add to Queue. Add to playlist. $1.49. Kooler Than Jesus Mylod & DPL Remix 2K18. My Life With The Thrill Kill Kult. Smilax Records. Add to Queue. Add to playlist. $1.49. Bad Life Kemek the Dope Computer Mix. My Life With The Thrill Kill Kult. Red Ant …13 Above the Night is the fourth studio album by industrial disco band My Life with the Thrill Kill Kult. It was originally released in 1993 on Interscope Records. My Life With The Thrill Kill Kult - Kooler Than JesusLabel:Wax Trax! RecordsCatalog#:WAX 9088Format:Vinyl, 12"Country:USReleased:1989Genre:ElectronicStyle:In...Filename F:\Archive\music\My Life with the Thrill Kill Kult - Cherrie Blue - 2006 - 4 CD Box Set\My Life With The Thrill Kill Kult - 2001 - The Reincarnation Of Luna\05 - Girl Without a Planet.wav Peak level 97.7 % Track quality 100.0 % Test CRC 8761AD01 Copy CRC 8761AD01Sexplosion. bass. Starmartyr. bass. The Days Of Swine And Roses. bass. Learn how to play 8 songs by My Life With the Thrill Kill Kult easily. At Ultimate-Guitar.com you will find 10 chords & tabs ...Easily find your favorite songs by My Life With the Thrill Kill Kult! Chords and tabs, covering a variety of genres. Start playing today!Apr 18, 2006 · A music video made from old educational films set to MLWTKK's song A Daisy Chain 4 Satan. 1993. Hit & Run Holiday. 1995. Sexplosion! (Expanded Edition) [2022 Remaster] 2022. My Life With the Thrill Kill Kult Essentials. Apple Music Hard Rock. Listen to My Life With the Thrill Kill Kult by My Life With the Thrill Kill Kult on Apple Music. 2004. 13 Songs.Jan 27, 2007 · My Life with the Thrill Kill Kult video for The Devil Does Drugs Learn about the history and evolution of the industrial music group from Chicago, who created a sonic tale of sex, blasphemy and kitschy horror since 1987. The band has …My Life with the Thrill Kill Kult video for The Devil Does DrugsMy Life with the Thrill Kill Kult. Released: September 7, 1993 () Recorded: Ground Control Studios (Los Angeles, California) Genre: Industrial dance: Label: Interscope: Producer: Buzz McCoy: My Life with the Thrill Kill Kult chronology; Sexplosion! (1991) 13 Above the Night (1993) Hit & Run Holiday (1995)Hand In Hand Lyrics: Stay where you are / Playing with fatalities / Come pass the stars / As darkness crumbles bones of clay / Stop all this crying / Pass the liquid to a cold one / Fate's left us ...Twilight Web. 4:51. My Life With The Thrill Kill Kult - "Mr. & Mrs. Bottomless Pit". 4:06. Blue Moon. 2:13. Explore the tracklist, credits, statistics, and more for A Crime For All Seasons by My Life With The Thrill Kill Kult. Compare versions and buy on Discogs.Track: X-Communication Artist: My Life With The Thrill Kill Kult ‎Label: Wax Trax! Records ‎-- WAXCD 056, Wax Trax! Records Format: CD, Album " I See Good Sp...My Life with the Thrill Kill Kult. Released: September 7, 1993 () Recorded: Ground Control Studios (Los Angeles, California) Genre: Industrial dance: Label: Interscope: Producer: Buzz McCoy: My Life with the Thrill Kill Kult chronology; Sexplosion! (1991) 13 Above the Night (1993) Hit & Run Holiday (1995). Food lion mvp login, Share price of powergrid, Come sail away, Bad omens just pretend, How to download on hulu, City of lewisville careers, Bbq bbq for sale, Creed 3 trailer, Kopy app, Overwatch mauga, Best torrent file downloader, Benfica vs, Lax enterprise rent a car, 500 deck cards

Nov 28, 2007 ... With Filament 38, Crud, Groundlift, and Project 44. ... My Life With the Thrill Kill Kult electro-disco industrial-goth-dance 7 p.m. Saturday, .... Wow diablo 4 event

my life with the thrill kill kulttyla water lyrics

LP. $36.99. Expanded. Black. Limited to 775 copies. Released 04/20/2024 Catalog Number. TUCI327673.1. Discover Kooler Than Jesus - RSD 2024 by My Life With The Thrill Kill …Records stable of recording artists, MY LIFE WITH THE THRILL KILL KULT have been conjuring up sonic tales of sex, blasphemy and kitschy horror since 1987. Along with label mates such as Front 242 and Ministry, TKK (as often abbreviated), helped develop the industrial music genre, yet have consistently evolved their sound, creating one of the ...For high-achievers, striving to be the best is part of the job description. Pushing your limits can be exhilarating, accomplishing things you’ve set your sights on can be motivatin...1987 - my life with the thrill kill kult ep (wax trax!) 1988 - some have to dance… some have to kill ep (wax trax!) 1989 - kooler than jesus b/w devil bunnies 12" (wax trax! records) 1990 - a girl doesn’t get killed by a make-believe lover ‘ cuz it’s ho t b/w a daisy chain 4 satan [remix] 12" (wax trax! records) 1990 - tkk vs. If you’re looking for a unique and exhilarating adventure in the waters of Kona, Hawaii, snorkeling with manta rays should be at the top of your list. The Kona coast is renowned fo...My Life With The Thrill Kill Kult. Download: $6.99. Share. Rare recordings of early songs and jams before TKK released their first album, I SEE GOOD SPIRITS AND I SEE BAD …MY LIFE WITH THE THRILL KILL KULT - Evil Eye Tour 87-97. Find concert tickets for My Life with the Thrill Kill Kult upcoming 2024 shows. Explore My Life with the Thrill Kill Kult tour schedules, latest setlist, videos, and more on livenation.com. 1988 - 1993Tracks:01. Do You Fear (For Your Child)? [0:00]02. ...And This Is What The Devil Does [5:12]03. The Days Of Swin And Roses (Edit) [10:31]04. On Th...Diamonds & Daggerz. My Life With The Thrill Kill Kult. Released. 2004 — US. CD —. Album. darlingkandie May 7, 2014. A dense, clubby release from Thrill Kill Kult, similar in production to 1993's "13 Above the Night" but with a more contemporary sound. Standout tracks are wicked disco track 'Monti Karlo' and 'Bella Piranha', both sure to be ...Listen to My Life With The Thrill Kill Kult on Spotify. Artist · 85.7K monthly listeners.Tour. My Life With The Thrill Kill Kult, an alternative group from Los Angeles If you're good then you'll dream. If you're good, if you're bad. If you're good, if you're bad. Baby, baby, kiss me now. I see it baby, I got you. I need it baby, I want you too. He's the kinda ...Find and buy MY LIFE WITH THE THRILL KILL KULT - Evil Eye Tour 87-97 tickets at the The Echo Lounge & Music Hall in Dallas, TX for Mar 27, 2024 at Live Nation. Cool sweat, hot sexy sucker. Dirty sugar dog. Viper kissin' evil lover. Cool sweat, pop sexy sucker. Pleasure planet boy. Funky bad-ass razor motha. Lookin' for a dose of action. Embed.FILE "08 My Life With The Thrill Kill Kult - Dimentia 66 (Cherry's Mix).wav" WAVE INDEX 01 00:00:00 TRACK 09 AUDIO TITLE "Wasted Time (Lap Dance Mix)" INDEX 00 03:26:05 FILE "09 My Life With The Thrill Kill Kult - Wasted Time (Lap Dance Mix).wav" WAVE INDEX 01 00:00:00 FILE "10 My Life With The Thrill Kill Kult - Doris …My Life With the Thrill Kill Kult discography and songs: Music profile for My Life With the Thrill Kill Kult, formed 1987. Genres: Electro-Industrial, Alternative Dance, Industrial. Albums include The Crow, Confessions of a Knife, and Sexplosion!.I sit here all alone with a martini built for 2. I sit here all alone. Well, I showed up but where are you? The world we lived in departs. Beneath rust colored clouds we weep. You're afraid of the ... Here where I sit alone lost. Here I will dream, why. Give me a drink, I need a think now. I have to rip my stinking brain. (previous line also rumored to be: "I got rid of my speaking words") Black boots, highway broads. Dope forever, forever loaded. Black boots.Diamonds & Daggerz. My Life With The Thrill Kill Kult. Released. 2004 — US. CD —. Album. darlingkandie May 7, 2014. A dense, clubby release from Thrill Kill Kult, similar in production to 1993's "13 Above the Night" but with a more contemporary sound. Standout tracks are wicked disco track 'Monti Karlo' and 'Bella Piranha', both sure to be ...Are you an aspiring writer, game developer, or creative enthusiast looking to bring your imagination to life? Creating your own character can be a thrilling and rewarding experienc...Cry me a killer, a boy and a girl. Rise from the ashes and escape from the world. Trails of fire lace the dreams in their heads. The soft touch of desperation on the velvet edge. The velvet edge ...Previously unreleased track from the SEXPLOSION! sessions now available on the re-mastered re-issue from WAX TRAX! RECORDSavailable at waxtrax.comDirected & ...Twilight Web. 4:51. My Life With The Thrill Kill Kult - "Mr. & Mrs. Bottomless Pit". 4:06. Blue Moon. 2:13. Explore the tracklist, credits, statistics, and more for A Crime For All Seasons by My Life With The Thrill Kill Kult. Compare versions and buy on Discogs.Listen to My Life With the Thrill Kill Kult on Spotify. My Life With The Thrill Kill Kult · Album · 2018 · 13 songs.The official website of the legendary industrial rock band My Life With The Thrill Kill Kult, featuring news, CDs, biography, discography, film and TV, and tour dates. Find out the latest updates on the "Evil Eye Tour" in 2023 and 2024, the re-issue of Sexplosion! on vinyl, and the new compilation of remixes by Buzz McCoy. My Life With the Thrill Kill Kult 2023 Tour Dates with ADULT. and KANGA: 05/14 – Mesa, AZ @ Nile Theatre 05/15 – Albuquerque, NM @ Launchpad 05/17 – Houston, TX @ House of BluesMy Life With The Thrill Kill Kult. @myTKK ‧ 14K subscribers ‧ 30 videos. Official site to watch all the wild & krazy MY LIFE WITH THE THRILL KILL KULT band videos, live performances, videos ... Nov 26, 2010 · Lyrics"I am the new way to go""I am the way of the future""I am the new way to go""I am the way of the future""There's a lot innocent people being crucified"... Easily find your favorite songs by My Life With the Thrill Kill Kult! Chords and tabs, covering a variety of genres. Start playing today!CarX Drift Racing Online has gained immense popularity among racing enthusiasts and gamers alike. With its realistic physics and immersive gameplay, it provides a thrilling experie...My Life With The Thrill Kill Kult * ADULT. * Kanga *Evil Eye Tour 87-97***EARLY SHOW***Monday, May 15, 2023Doors 7pm | Show 8pmLaunchpadABQ NM21+Advance ...Cry me a killer, a boy and a girl. Rise from the ashes and escape from the world. Trails of fire lace the dreams in their heads. The soft touch of desperation on the velvet edge. The velvet edge ...My Life With The Thrill Kill Kult; I See Good Spirits & I See Bad Spirits; Gateway To Hell Lyrics. More Featured Meanings. Fast Car Tracy Chapman "Fast car" is kind of a continuation of Bruce Springsteen's "Born to Run." It has all the clawing your way to a better life, but in this case the protagonist never makes it with her love; in fact she ...My Life With The Thrill Kill Kult, an alternative group from Los Angeles. Lyrics. My Life With The Thrill Kill Kult, an alternative group from Los Angeles. News. Tour. Past Shows. Shop. ... A Girl Doesn't Get Killed By A Make-Believe Lover Cuz It's Hot 43.1 KB. A Martini Built For 2 38.4 KB. And This Is What The Devil Does 39.2 KB. After The ...1988 - 1993Tracks:01. Do You Fear (For Your Child)? [0:00]02. ...And This Is What The Devil Does [5:12]03. The Days Of Swin And Roses (Edit) [10:31]04. On Th...Tell me all your dirty little secrets. Dirty little secrets. I'm coming up to you like some kinda white witch in a fever, baby. Don't tell me to control myself. I mean, you don't want me to ...1988 - 1993Tracks:01. Do You Fear (For Your Child)? [0:00]02. ...And This Is What The Devil Does [5:12]03. The Days Of Swin And Roses (Edit) [10:31]04. On Th...Driving is a necessary part of life for many people, but it can also be dangerous. Every year, thousands of people are injured or killed in car accidents. To help keep yourself and...Sexplosion. bass. Starmartyr. bass. The Days Of Swine And Roses. bass. Learn how to play 8 songs by My Life With the Thrill Kill Kult easily. At Ultimate-Guitar.com you will find 10 chords & tabs ...TRACK LISTING. 01. Bella Piranha (Hot Shot Mix) by My Life With The Thrill Kill Kult. 02. Studio 21 (Titan Mix) by My Life With The Thrill Kill Kult. 03. Hell Kat Klub (Klit Klub Mix) by My Life With The Thrill Kill Kult. 04. Want (Cockadoodledoo Mix) by Bomb Gang Girlz. It is ironic that the preceding My Life with the Thrill Kill Kult disc was the remix compilation Dirty Little Secrets, because The Reincarnation of Luna sounds like a slew of remixes in its own right. This owes in part to the presence of some soundscapes that are unique to the group, though the results are mixed.My Life with the Thrill Kill Kult band members circa 1993 (l-r): Groovie Mann, Sekret DeZyre, Levi Levi, Kitty Killdare, Jacky Blaque and Buzz McCoy. Credit: Courtesy of Wax Trax! Records. Get free Xtra newsletters. Xtra is being blocked on Facebook and Instagram for Canadians as part of Meta’s response to Bill C18.Heresy. My Life WIth The Thrill Kill Kult. Track 1 on I See Good Spirits and I See Bad Spirits. Produced by. My Life WIth The Thrill Kill Kult. 1988 1 viewer. 2 Contributors.Sexplosion! (1991) 13 Above the Night. (1993) Sexplosion! is the third studio album by industrial disco band My Life with the Thrill Kill Kult. It was originally released in 1991 on Wax Trax! Records. Described by lead vocalist Groovie Mann as their "sexy" album, Sexplosion! is one of the band's biggest commercial and critical successes.Building your own home is a challenging, thrilling, rewarding and sometimes frustrating process. It is one of the processes that invokes dreams people have sometimes held throughou...“My Life with the Thrill Kill Kult” is an American electronic industrial rock band originally based in Chicago, Illinois.LP. $36.99. Expanded. Black. Limited to 775 copies. Released 04/20/2024 Catalog Number. TUCI327673.1. Discover Kooler Than Jesus - RSD 2024 by My Life With The Thrill Kill …Note: this item has been corrected. Note: this item has been corrected. The death of low-profile British businessman Neil Heywood in China has raised numerous theories about his li...My Life With The Thrill Kill Kult Hailing from Chicago’s renowned Wax Trax! Records stable of artists, MY LIFE WITH THE THRILL KILL KULT have been conjuring up sonic tales of sex, blasphemy and...In 2017, Thrill Kill Kult mounted a complete run through their first two albums on the 30th anniversary of their founding. In addition to their own releases, My Life with the Thrill Kill Kult have contributed tracks to several film soundtracks, including Paul Verhoeven 's Showgirls, Gregg Araki's Nowhere, and the hit movie The Crow (the group ... Let Sleeping Corpses Lie. The Education Of Sonny Carson. Do Not Sell or Share My Personal Information. "And I told him that's crazy!" - Divorce Court Gentry: "Get in and fasten your seat belt." - The Gore Gore Girls Marcy: "I live for drugs." Marcy: "It's great." Marcy: "I freaked out very, very badly." Marcy: "Freaked out on acid."Filename J:\Vilator\Lossless\EBM\My Life With The Thrill Kill Kult\1993 13 Above The Night\My Life With The Thrill Kill Kult - 13 Above The Night.wav Peak level 100.0 % Range quality 100.0 % Test CRC 3D08CC35 Copy CRC 3D08CC35 Copy OK No errors occurred AccurateRip summaryThis is My Life with the Thrill Kill Kult's 4th cd which came out in 1993. I think it's one of their best cd's but it's a little different than many of their...My Life With The Thrill Kill Kult is an American industrial rock band known for their provocative stage performances and satirical, often controversial, lyrical content. Formed in 1987 by Groovie Mann (born Frankie Nardiello) and Buzz McCoy (born Marston Daley), the band has its roots in the Chicago industrial music scene. My Life With the Thrill Kill Kult 444K plays Season 4 Music from the Showtime Series Californication. Show all. Albums. More. Sexplosion! (Expanded Edition) [2022 Remaster] Album • 2022. The Filthiest Show In Town. Album • 2007. The Resurrection Of Luna. Album • 2007. Gay, Black And Married.Jul 14, 2017 · My Life With The Thrill Kill Kult - Confessions Of A Knife (1990)01. A Daisy Chain 4 Satan 0:0002. The Days Of Swine & Roses 5:3203. Hand In Hand 11:3404.... Dope Kult Lyrics: Oh Daddy oh... / Why am I doing this, why do I have to do it, and why can't I just be an ordinary person? / No Daddy don't! / And this is what the devil does... / Oh how I hateCool sweat, hot sexy sucker. Dirty sugar dog. Viper kissin' evil lover. Cool sweat, pop sexy sucker. Pleasure planet boy. Funky bad-ass razor motha. Lookin' for a dose of action. Embed.It includes the edited versions of "'Cuz It's Hot" and "Kooler Than Jesus" from My Life With the Thrill Kill Kult, the Sexplosion! highlight "Sex on Wheels," the delightfully sleazy "Devil Bunnies," and a remix of the Crow soundtrack cut "After the Flesh." All of this makes Best of TKK a worthy purchase for anyone curious about the band's ...Sexplosion! (1991) 13 Above the Night. (1993) Sexplosion! is the third studio album by industrial disco band My Life with the Thrill Kill Kult. It was originally released in 1991 on Wax Trax! Records. Described by lead vocalist Groovie Mann as their "sexy" album, Sexplosion! is one of the band's biggest commercial and critical successes.Aug 24, 2023 · August 24, 2023 8:00 pm. Time: 8:00pm Day: Thursday Doors: 7:00pm Ages: All Ages / Bar with ID Price: $25 - $150. This Event Has Ended. NEW DATE!! MY LIFE WITH THE THRILL KILL KULT. ADULT. KANGA. Sex On Wheelz. Watch on. from I see good spirits I see bad spirits with my all time fav album graphic from TKK (wasnt this the 'some have to dance some have to kill' vinyl gatefold?)...Wax Trax! Records – WAX 7163 – Sexplosion!http://waxtraxchicago.bigcartel.com/My Life with the Thrill Kill Kult (often shortened to Thrill Kill Kult or TKK) is an American electronic industrial rock band originally based in Chicago and founded by Groovie Mann (born Frankie Nardiello) and Buzz McCoy (born Marston Daley). They became known in the 1980s as pioneers of the industrial music genre – although by the early ... Jan 27, 2007 · My Life with the Thrill Kill Kult video for The Devil Does Drugs My Life With The Thrill Kill Kult. Download: $6.99. Share. Rare recordings of early songs and jams before TKK released their first album, I SEE GOOD SPIRITS AND I SEE BAD …Tell me all your dirty little secrets. Dirty little secrets. I'm coming up to you like some kinda white witch in a fever, baby. Don't tell me to control myself. I mean, you don't want me to ...Darling Kandie. Buzz McCoy. Bomb Gang Girlz. Special Affect. This is a list of past THRILL KILL KULT performances and tours. We know there are a few shows that slipped under …(s) "Kill her." (s) "Thrill" (s) "Kill" (s) "Cult" He's the kinda man that knows I want you everywhere I go Baby, baby, don't resist You know I got the thing you missed (s) "Thrill" (s) "Kill" (s ...Hit & Run Holiday is the fifth studio album by industrial disco band My Life with the Thrill Kill Kult. It was originally released in 1995 on Interscope Records. The band describes it as a surf - punk meets Motown sound that tells the story of vixen Krystal Starlust and drifter Apollo. [3] May 3, 2014 · Wax Trax! Records ‎– WAX 9160 – Naïve / The Days Of Swine & Roses http://www.waxtraxchicago.com/ In 2017, Thrill Kill Kult mounted a complete run through their first two albums on the 30th anniversary of their founding. In addition to their own releases, My Life with the Thrill Kill Kult have contributed tracks to several film soundtracks, including Paul Verhoeven 's Showgirls, Gregg Araki's Nowhere, and the hit movie The Crow (the group ... Nov 2, 2023 ... Masonic Cleveland · My Life with the Thrill Kill Kult · Special Event Rentals · Contact: (216) 881-6350 Option 2 [email protected] 18, 2006 · A music video made from old educational films set to MLWTKK's song A Daisy Chain 4 Satan. . Bloody mary lady gaga lyrics, Janis joplin piece of my heart, Cruz azul vs. inter miami, How to swaddle a baby, The cheesecake factory date, Nitrogen monoxide formula, The climb lyrics, Dragon squat, Galy galiano, Closing time song, Downloader mp3, R.e.m. everybody hurts, Stubhub fees buyer, Poland vs germany.